General

Unique ID : 244739322164088239757377073865365543206 (0xB81F14339BCF4AF98FFA621E11465926)
Complete name : /movies/t/Taxi_Driver_1976_4K_1080p_BluRay_ETRG_30NAMA.mkv
Format : Matroska
Format version : Version 4 / Version 2
File size : 4.69 GiB
Duration : 1 h 53 min
Overall bit rate : 5 894 kb/s
Encoded date : UTC 2016-06-04 19:33:26
Writing application : mkvmerge v9.2.0 ('Photograph') 64bit
Writing library : libebml v1.3.3 + libmatroska v1.4.4

Video

ID : 1
Format : AVC
Format/Info : Advanced Video Codec
Format profile : High@L4.1
Format settings : CABAC / 4 Ref Frames
Format settings, CABAC : Yes
Format settings, RefFrames : 4 frames
Codec ID : V_MPEG4/ISO/AVC
Duration : 1 h 53 min
Bit rate : 4 384 kb/s
Width : 1 920 pixels
Height : 1 040 pixels
Display aspect ratio : 1.85:1
Frame rate mode : Constant
Frame rate : 23.976 (24000/1001) FPS
Color space : YUV
Chroma subsampling : 4:2:0
Bit depth : 8 bits
Scan type : Progressive
Bits/(Pixel*Frame) : 0.092
Stream size : 3.48 GiB (74%)
Writing library : x264 core 148 r2638 7599210
Encoding settings : cabac=1 / ref=4 / deblock=1:-2:-2 / analyse=0x3:0x133 / me=umh / subme=11 / psy=1 / psy_rd=1.00:0.25 / mixed_ref=1 / me_range=32 / chroma_me=1 / trellis=2 / 8x8dct=1 / cqm=0 / deadzone=21,11 / fast_pskip=0 / chroma_qp_offset=-4 / threads=12 / lookahead_threads=1 / sliced_threads=0 / nr=0 / decimate=1 / interlaced=0 / bluray_compat=0 / constrained_intra=0 / bframes=4 / b_pyramid=2 / b_adapt=2 / b_bias=0 / direct=3 / weightb=1 / open_gop=0 / weightp=2 / keyint=240 / keyint_min=23 / scenecut=40 / intra_refresh=0 / rc_lookahead=60 / rc=2pass / mbtree=1 / bitrate=4384 / ratetol=1.0 / qcomp=0.60 / qpmin=0 / qpmax=69 / qpstep=4 / cplxblur=20.0 / qblur=0.5 / ip_ratio=1.40 / aq=1:1.00
Default : Yes
Forced : No

Audio

ID : 2
Format : DTS
Format/Info : Digital Theater Systems
Mode : 16
Format settings, Endianness : Big
Codec ID : A_DTS
Duration : 1 h 53 min
Bit rate mode : Constant
Bit rate : 1 509 kb/s
Channel(s) : 6 channels
Channel positions : Front: L C R, Side: L R, LFE
Sampling rate : 48.0 kHz
Frame rate : 93.750 FPS (512 SPF)
Bit depth : 24 bits
Compression mode : Lossy
Stream size : 1.20 GiB (26%)
Title : Surround Sound
Language : English
Default : Yes
Forced : No

Menu

00:00:00.000 : en:Start
00:02:10.434 : en:Travis Bickle
00:10:58.302 : en:Tom and Betsy
00:15:06.969 : en:Wizard's Court
00:20:03.770 : en:A New Volunteer
00:28:19.270 : en:Charles Palantine
00:30:45.370 : en:Aborted Fire
00:33:10.137 : en:A Date with Betsy
00:38:57.804 : en:Confrontation
00:40:07.104 : en:Curbside Cuckhold
00:44:00.938 : en:A Word with Wizard
00:51:35.938 : en:Running Into Iris
00:53:45.071 : en:Easy Andy
01:01:06.738 : en:Henry Krinkle
01:05:43.439 : en:"You Talkin' to Me?"
01:08:07.606 : en:Market Robbery
01:09:44.606 : en:"Late for the Sky"
01:11:22.474 : en:"Dear Father and Mother."
01:13:28.342 : en:Tv Critic
01:14:44.442 : en:Looking for Action
01:18:41.109 : en:A $10 Room
01:24:40.843 : en:Breakfast with Iris
01:29:37.277 : en:Dancing with Sport
01:34:06.277 : en:The Palantine Rally
01:37:56.444 : en:"Suck on This."
01:39:36.811 : en:Shooting Gallery
01:42:23.512 : en:"Bang, Bang, Bang."
01:45:51.446 : en:"Dear Mr. Bickle."