General

Unique ID : 52968641377951005038594010363556196031 (0x27D963A62BFB29053D1641DC79A2EEBF)
Complete name : /movies/t/The_Mule_2018_1080p_x265_BrRip_10bit_6CH_MkvCage_30NAMA.mkv
Format : Matroska
Format version : Version 4 / Version 2
File size : 2.80 GiB
Duration : 1 h 56 min
Overall bit rate : 3 438 kb/s
Movie name : The.Mule.2018.1080p.BluRay.10bit.HEVC.6CH-MkvCage.ws
Encoded date : UTC 2019-03-28 13:00:29
Writing application : mkvmerge v31.0.0 ('Dolores In A Shoestand') 64-bit
Writing library : libebml v1.3.6 + libmatroska v1.4.9
Cover : Yes
Attachments : cover.jpg

Video

ID : 1
Format : HEVC
Format/Info : High Efficiency Video Coding
Format profile : Main 10@L4@Main
Codec ID : V_MPEGH/ISO/HEVC
Duration : 1 h 56 min
Bit rate : 3 180 kb/s
Width : 1 920 pixels
Height : 804 pixels
Display aspect ratio : 2.40:1
Frame rate mode : Constant
Frame rate : 23.976 (24000/1001) FPS
Color space : YUV
Chroma subsampling : 4:2:0
Bit depth : 10 bits
Bits/(Pixel*Frame) : 0.086
Stream size : 2.59 GiB (92%)
Default : Yes
Forced : No

Audio

ID : 2
Format : AAC
Format/Info : Advanced Audio Codec
Format profile : HE-AAC / LC
Format settings : Explicit
Codec ID : A_AAC-2
Duration : 1 h 56 min
Bit rate : 256 kb/s
Channel(s) : 6 channels
Channel(s)_Original : 18 channels
Channel positions : Front: 14, Side: C, Back: C, LFE= 2
Sampling rate : 48.0 kHz / 24.0 kHz
Frame rate : 23.438 FPS (1024 SPF)
Compression mode : Lossy
Delay relative to video : 43 ms
Stream size : 213 MiB (7%)
Language : English
Default : Yes
Forced : No

Text #1

ID : 3
Format : UTF-8
Codec ID : S_TEXT/UTF8
Codec ID/Info : UTF-8 Plain Text
Duration : 1 h 46 min
Bit rate : 68 b/s
Count of elements : 1829
Stream size : 53.5 KiB (0%)
Title : HI
Language : English
Default : Yes
Forced : No

Text #2

ID : 4
Format : UTF-8
Codec ID : S_TEXT/UTF8
Codec ID/Info : UTF-8 Plain Text
Duration : 1 h 46 min
Bit rate : 60 b/s
Count of elements : 1645
Stream size : 47.0 KiB (0%)
Language : English
Default : No
Forced : No

Menu

00:00:00.000 : en:Chapter 1
00:06:45.822 : en:Chapter 2
00:15:27.885 : en:Chapter 3
00:23:24.236 : en:Chapter 4
00:32:22.482 : en:Chapter 5
00:40:29.886 : en:Chapter 6
00:48:20.564 : en:Chapter 7
00:57:55.347 : en:Chapter 8
01:07:17.408 : en:Chapter 9
01:16:17.364 : en:Chapter 10
01:23:18.785 : en:Chapter 11
01:32:20.160 : en:Chapter 12
01:39:12.947 : en:Chapter 13
01:46:17.580 : en:Chapter 14
01:48:52.443 : en:Chapter 15