General

Unique ID : 189281232952671190643750087737474985849 (0x8E663D4C4B56E1F688F3B557207EAF79)
Complete name : /movies/t/The_Usual_Suspects_1995_1080p_x265_BrRip_10bit_Tigole_30NAMA.mkv
Format : Matroska
Format version : Version 4 / Version 2
File size : 2.29 GiB
Duration : 1 h 46 min
Overall bit rate : 3 086 kb/s
Encoded date : UTC 2017-02-04 03:24:22
Writing application : mkvmerge v9.8.0 ('Kuglblids') 64bit
Writing library : libebml v1.3.4 + libmatroska v1.4.5

Video

ID : 1
Format : HEVC
Format/Info : High Efficiency Video Coding
Format profile : Main 10@L4@Main
Codec ID : V_MPEGH/ISO/HEVC
Duration : 1 h 46 min
Bit rate : 2 739 kb/s
Width : 1 920 pixels
Height : 816 pixels
Display aspect ratio : 2.35:1
Frame rate mode : Constant
Frame rate : 23.976 (24000/1001) FPS
Color space : YUV
Chroma subsampling : 4:2:0
Bit depth : 10 bits
Bits/(Pixel*Frame) : 0.073
Stream size : 2.03 GiB (89%)
Writing library : x265 2.2+22-20217c8af8ac:[Windows][GCC 6.2.0][64 bit] 10bit
Encoding settings : cpuid=1173503 / frame-threads=3 / numa-pools=8 / wpp / no-pmode / no-pme / no-psnr / no-ssim / log-level=2 / input-csp=1 / input-res=1920x816 / interlace=0 / total-frames=152585 / level-idc=0 / high-tier=1 / uhd-bd=0 / ref=4 / no-allow-non-conformance / no-repeat-headers / annexb / no-aud / no-hrd / info / hash=0 / no-temporal-layers / open-gop / min-keyint=23 / keyint=250 / bframes=4 / b-adapt=2 / b-pyramid / bframe-bias=0 / rc-lookahead=25 / lookahead-slices=4 / scenecut=40 / no-intra-refresh / ctu=64 / min-cu-size=8 / rect / no-amp / max-tu-size=32 / tu-inter-depth=1 / tu-intra-depth=1 / limit-tu=0 / rdoq-level=2 / signhide / no-tskip / nr-intra=0 / nr-inter=0 / no-constrained-intra / strong-intra-smoothing / max-merge=3 / limit-refs=3 / limit-modes / me=3 / subme=3 / merange=57 / temporal-mvp / weightp / no-weightb / no-analyze-src-pics / deblock=0:0 / sao / no-sao-non-deblock / rd=4 / no-early-skip / rskip / no-fast-intra / no-tskip-fast / no-cu-lossless / no-b-intra / rdpenalty=0 / psy-rd=2.00 / psy-rdoq=1.00 / no-rd-refine / analysis-mode=0 / no-lossless / cbqpoffs=0 / crqpoffs=0 / rc=abr / bitrate=2739 / qcomp=0.60 / qpstep=4 / stats-write=0 / stats-read=2 / cplxblur=20.0 / qblur=0.5 / ipratio=1.40 / pbratio=1.30 / aq-mode=2 / aq-strength=1.00 / cutree / zone-count=0 / no-strict-cbr / qg-size=32 / no-rc-grain / qpmax=69 / qpmin=0 / sar=0 / overscan=0 / videoformat=5 / range=0 / colorprim=2 / transfer=2 / colormatrix=2 / chromaloc=0 / display-window=0 / max-cll=0,0 / min-luma=0 / max-luma=1023 / log2-max-poc-lsb=8 / vui-timing-info / vui-hrd-info / slices=1 / opt-qp-pps / opt-ref-list-length-pps / no-multi-pass-opt-rps / scenecut-bias=0.05 / no-opt-cu-delta-qp / no-aq-motion
Default : Yes
Forced : No

Audio

ID : 2
Format : AAC
Format/Info : Advanced Audio Codec
Format profile : LC
Codec ID : A_AAC-2
Duration : 1 h 46 min
Bit rate : 329 kb/s
Channel(s) : 6 channels
Channel positions : Front: L C R, Side: L R, LFE
Sampling rate : 48.0 kHz
Frame rate : 46.875 FPS (1024 SPF)
Compression mode : Lossy
Delay relative to video : 20 ms
Stream size : 250 MiB (11%)
Language : English
Default : Yes
Forced : No

Text #1

ID : 3
Format : VobSub
Muxing mode : zlib
Codec ID : S_VOBSUB
Codec ID/Info : Picture based subtitle format used on DVDs
Duration : 1 h 38 min
Bit rate : 8 451 b/s
Count of elements : 1473
Stream size : 5.98 MiB (0%)
Language : English
Default : No
Forced : No

Text #2

ID : 4
Format : VobSub
Muxing mode : zlib
Codec ID : S_VOBSUB
Codec ID/Info : Picture based subtitle format used on DVDs
Duration : 1 h 40 min
Bit rate : 7 446 b/s
Count of elements : 1395
Stream size : 5.34 MiB (0%)
Language : Spanish
Default : No
Forced : No

Text #3

ID : 5
Format : VobSub
Muxing mode : zlib
Codec ID : S_VOBSUB
Codec ID/Info : Picture based subtitle format used on DVDs
Duration : 1 h 38 min
Bit rate : 45 b/s
Count of elements : 9
Stream size : 33.0 KiB (0%)
Language : French
Default : No
Forced : No

Menu

00:00:00.000 : en:Main Title
00:02:17.846 : en:The Last Smoke
00:05:11.644 : en:Rounding Up...
00:08:02.732 : en:...the Usual Suspects
00:12:06.058 : en:Five Guys in a Room
00:16:56.056 : en:Two Survivors
00:18:00.079 : en:Not an Interrogation
00:20:20.510 : en:Hungarian Burn Victim
00:21:56.064 : en:"I'm Smarter Than You"
00:26:03.478 : en:After the Lineup
00:28:27.414 : en:Convincing Keaton
00:31:20.461 : en:Ny's Finest Taxi Service
00:34:47.043 : en:The Fence in California
00:37:28.246 : en:"Dean Keaton Was Dead"
00:39:37.958 : en:He Saw the Devil
00:41:26.859 : en:"There Was a Lawyer..."
00:43:07.209 : en:Redfoot Makes an Offer
00:46:15.439 : en:Bad Day for a Heist
00:50:39.661 : en:"Who's Keyser Soze?"
00:51:56.321 : en:Kobayashi
00:57:01.709 : en:"a Gift From Mr. Soze"
00:59:13.258 : en:One Day in Turkey
01:04:44.213 : en:Finding Fenster
01:07:07.273 : en:No Threat to Kobayashi
01:13:08.717 : en:A Logistical Nightmare
01:14:18.036 : en:Ready, Set, Shoot
01:22:31.738 : en:A Rat Naming Names
01:23:37.804 : en:No-Dope Boat
01:28:40.940 : en:And Then There Was One
01:32:39.178 : en:"He Was My Friend!"
01:37:55.744 : en:The Writing on the Wall
01:42:39.528 : en:End Credits
01:46:03.815 : en: